العودة   منتديات داماس > الكورسات التعليمية > كورسات انجليزية

  مواضيع مميزة  

  آخر عشرة مواضيع   المواضيع النشطة



إضافة رد
  #1  
03-02-2017, 03:18 PM
VIP
رقم العضوية: 790941
تاريخ التسجيل: Jun 2016
المشاركات: 844
تلقى دعوات الى: 286 موضوع
إعجاب: 1,156
تلقى 1,546 إعجاب على 468 مشاركة
 

Udemy - The Platforms Biggest & Most Popular Photoshop Course



Udemy - The Platforms Biggest & Most Popular Photoshop Course

Udemy The Platforms Biggest & Most Popular Photoshop Course


https://www.udemy.com/photoshoptraining/





What This Course Entails:

I will teach you how to get into photoshop, so don't worry if you don't have prior experience with photoshop or other plugins. Follow my lead and I'll teach you to be good at it! “Seriously"

All my photoshop instructions form part of a comprehensive guide that can help you to accomplish your goals by applying these skills. During the lesson you get to eavesdrop as I work, giving you some insight as to how I work and what I do. You will also be able to download all my work files and work along with the exact same files.

The idea is to make photoshop fun and easy! "Anyone can do this"

Whether you have previous experience with photoshop or not, it doesn't matter. Apply your knowledge for half an hour a day and you could be making huge improvements or even extra cash, just like me.

"And I'm not kidding when I say that you need nothing but photoshop!"

You'll learn
How to become a photoshop expert "Guaranteed"
How to improve your photoshop skills dramatically
Understand all photoshop basics and go beyond
Learn more than 50+ different photoshop techniques
How to get work done, quicker in photoshop
How to go beyond the level of intermediate photoshop user
How to use photoshop in order to retouch Cars
How to use photoshop in order to retouch Portraits
How to use photoshop in order to retouch Beauty & Fashion
How to use photoshop in order to retouch your personal work
How to create amazing color casts and color grades
How to install, work and understand photoshop plugins
Learn about photoshop secrets techniques
... and much, much more!

(Project files are not included in this torrent)
More details here

Quote:
Media Info

General
Format : MPEG-4
Format profile : Base Media
Codec ID : isom
File size : 55.6 MiB
Duration : 17mn 17s
Overall bit rate mode : Variable
Overall bit rate : 450 Kbps
Encoded date : UTC 2015-07-23 09:08:57
Tagged date : UTC 2015-07-23 09:08:57

Video
ID : 1
Format : AVC
Format/Info : Advanced Video Codec
Format profile : Baseline@L3.1
Format settings, CABAC : No
Format settings, Reframes : 3 frames
Format settings, GOP : M=1, N=75
Codec ID : avc1
Codec ID/Info : Advanced Video Coding
Duration : 17mn 17s
Bit rate : 388 Kbps
Maximum bit rate : 5 465 Kbps
Width : 1 280 pixels
Height : 720 pixels
Display aspect ratio : 16:9
frame rate mode : Constant
frame rate : 25.000 fps
Color space : YUV
Chroma subsampling : 4:2:0
Bit depth : 8 bits
Scan type : Progressive
Bits/(Pixel*frame) : 0.017
Stream size : 47.9 MiB (86%)
Writing library : Zencoder Video Encoding System
Encoded date : UTC 2015-07-23 09:05:33
Tagged date : UTC 2015-07-23 09:08:57
Color primaries : BT.709
Transfer characteristics : BT.709
Matrix coefficients : BT.709

Audio
ID : 2
Format : AAC
Format/Info : Advanced Audio Codec
Format profile : LC
Codec ID : 40
Duration : 17mn 17s
Bit rate mode : Variable
Bit rate : 59.7 Kbps
Maximum bit rate : 66.1 Kbps
Channel(s) : 2 channels
Channel positions : Front: L R
Sampling rate : 44.1 KHz
Compression mode : Lossy
Stream size : 7.38 MiB (13%)
Encoded date : UTC 2015-07-23 09:05:33
Tagged date : UTC 2015-07-23 09:08:57





كل رابط 976 ميقا


http://uptobox.com/hompqxyc9efm

http://uptobox.com/bgiq5e0exfoo

http://uptobox.com/4ksk6cwerwot

http://uptobox.com/l1sx2h39dnpl

http://uptobox.com/g84tdqkhoonz

http://uptobox.com/ga0v6fuhqzyz

http://uptobox.com/lpbp6es9vsi3

http://uptobox.com/9v8n5qbsogoh

http://uptobox.com/4dgg9w9kydct

http://uptobox.com/vuonx5fnotyx

او من هنا بتقسيم مختلف

http://mediafire.com/download/001/2/The.Biggest...urse.part1.rar

http://mediafire.com/download/001/2/The.Biggest...urse.part2.rar

http://mediafire.com/download/001/2/The.Biggest...urse.part3.rar

http://mediafire.com/download/001/2/The.Biggest...urse.part4.rar

http://mediafire.com/download/001/2/The.Biggest...urse.part5.rar

http://mediafire.com/download/001/2/The.Biggest...urse.part6.rar

http://mediafire.com/download/001/2/The.Biggest...urse.part7.rar

http://mediafire.com/download/001/2/The.Biggest...urse.part8.rar

التسجيل في بوابة داماس يمنحك روابط مباشرة لتحميل الملفات





المواضيع المشابهه
الموضوع كاتب الموضوع المنتدى مشاركات آخر مشاركة
طلب كورس The Platform's Biggest & Most Popular Photoshop Course جلال الدين 123 كورسات انجليزية 2 01-02-2018 07:35 PM
Udemy Photoshop Beginners Mastery: Zero to Hero in Photoshop سعد الدين كورسات انجليزية 3 30-09-2017 04:15 AM
تعلم أشهر الكلمات والجمل بالانجليزية Udemy Learn 101 Popular English Idioms with 8 Songs سعد الدين كورسات تعليم اللغات, كورسات وبرامج وكتب تعليم اللغات 5 23-09-2017 09:30 AM
طلب كورس Photoshop Made Easy: Learn Photoshop in 4 hrs /udemy OussamaDZELHADJ كورسات انجليزية 7 25-08-2017 09:35 AM
أكبر مجموعة فلاتر فوتوشوب The Biggest library for Photoshop plugins سعد الدين فلاتر فوتوشوب - Photoshop Plugins 18 20-11-2016 05:53 PM
  #3  
08-02-2017, 10:23 PM
عضو جديد
رقم العضوية: 904034
تاريخ التسجيل: Feb 2017
المشاركات: 2
تلقى دعوات الى: 0 موضوع
إعجاب: 1
تلقى 0 إعجاب على 0 مشاركة
 

مشكور اخي

  #4  
09-02-2017, 07:55 AM
الوسـام الماسـي
رقم العضوية: 46842
تاريخ التسجيل: Jul 2006
المشاركات: 16,819
تلقى دعوات الى: 764 موضوع
إعجاب: 944
تلقى 2,819 إعجاب على 2,528 مشاركة
 

بارك الله فيك اخي الحبيب
شكراً لك على الطرح الرائع


  #5  
11-02-2017, 09:17 PM
عضو فعال
رقم العضوية: 406891
تاريخ التسجيل: Sep 2012
المشاركات: 147
تلقى دعوات الى: 29 موضوع
إعجاب: 312
تلقى 39 إعجاب على 34 مشاركة
 

رائع جدا
وافر الشكر والتقدير لحضرتك


  #6  
05-07-2017, 08:56 PM
عضو جديد
رقم العضوية: 612630
تاريخ التسجيل: May 2015
المشاركات: 3
تلقى دعوات الى: 0 موضوع
إعجاب: 2
تلقى 0 إعجاب على 0 مشاركة
 

thanxxxx

إضافة رد



الساعة الآن 03:39 PM.


Powered by vBulletin® Version
Copyright ©2000 - 2018, Jelsoft Enterprises Ltd.
The owner and operator of the site is not responsible for the availability of, or any content provided.
Topics that are written in the site reflect the opinion of the author.
جميع ما يُطرح من مواضيع ومشاركات تعبر عن رأي كاتبها ولا تعبر عن رأي مالك الموقع أو الإدارة بأي حال من الأحوال.