أستغفر الله العظيم ... سبحان الله وبحمده



العودة   منتديات داماس > الكورسات والاسطوانات > المحاضرات والكتب والبرامج الطبية


مواضيع مميزة  


آخر عشرة مواضيع المواضيع النشطة


11-04-2017, 12:55 AM
chromoma غير متصل
عضو مميز
رقم العضوية: 34256
تاريخ التسجيل: Feb 2006
المشاركات: 383
إعجاب: 814
تلقى 155 إعجاب على 78 مشاركة
تلقى دعوات الى: 103 موضوع
    #1  

World Without Cancer The Story of Vitamin B17 (1974)


G Edward Griffin - World Without Cancer The Story of Vitamin B17 (1974)
WEBRip | English | MP4 + PDF Guides | 640 x 468 | MPEG-4 ~1178 kbps | 29 fps
AAC | 129 Kbps | 44.1 KHz | 2 channels | 02:48:13 | 2.25 GB
Genre: eLearning Video / Health, Alternative Cancer Therapy


World Without Cancer Story Vitamin

G. Edward Griffin marshals the evidence that cancer is a deficiency disease - like scurvy or pellagra - aggravated by the lack of an … all essential food compound in modern man's diet. That substance is vitamin B17. In its purified form developed for cancer therapy, it is known as Laetrile.
This story is not approved by orthodox medicine. The FDA, the AMA, and The American Cancer Society have labeled it fraud and quackery. Yet the evidence is clear that here, at last, is the final answer to the cancer riddle.

Why has orthodox medicine waged war against this non-drug approach? The author contends that the answer is to be found, not in science, but in politics - and is based upon the hidden economic and power agenda of those who dominate the medical establishment.

With billions of dollars spent each year on research, with other billions taken in on the sale of cancer-related drugs, and with fund-raising at an all-time high, there are now more people making a living from cancer than dying from it. If the solution should be found in a simple vitamin, this gigantic industry could be wiped out over night. The result is that the politics of cancer therapy is more complicated than the science.

videos:

Alternative Cancer Therapy B17 with G Edward Griffin
Cancer Cure Ed Griffin B17 Apricot Kernels Cures Cancer (480p).mp4
World Without Cancer The Story of Vitamin B17 by G Edward Griffin (1974) (480p).mp4

Screenshots
World Without Cancer Story Vitamin

World Without Cancer Story Vitamin

World Without Cancer Story Vitamin

World Without Cancer Story Vitamin

World Without Cancer Story Vitamin



MediaInfo:
General
Complete name : World Without Cancer The Story of Vitamin B17 by G Edward Griffin (1974) (480p).mp4
Format : MPEG-4
Format profile : Base Media
Codec ID : isom
File size : 519 MiB
Duration : 55mn 13s
Overall bit rate mode : Variable
Overall bit rate : 1 314 Kbps
Writing application : Lavf54.63.104

Video
ID : 1
Format : MPEG-4 Visual
Format profile : Simple@L1
Format settings, BVOP : No
Format settings, QPel : No
Format settings, GMC : No warppoints
Format settings, Matrix : Default (H.263)
Codec ID : 20
Duration : 55mn 13s
Bit rate mode : Variable
Bit rate : 1 178 Kbps
Maximum bit rate : 1 500 Kbps
Width : 640 pixels
Height : 468 pixels
Display aspect ratio : 4:3
Original display aspect rat : 4:3
Frame rate mode : Constant
Frame rate : 29.000 fps
Color space : YUV
Chroma subsampling : 4:2:0
Bit depth : 8 bits
Scan type : Progressive
Compression mode : Lossy
Bits/(Pixel*Frame) : 0.136
Stream size : 465 MiB (90%)
Writing library : Lavc54.92.100

Audio
ID : 2
Format : AAC
Format/Info : Advanced Audio Codec
Format profile : LC
Codec ID : 40
Duration : 55mn 13s
Bit rate mode : Constant
Bit rate : 129 Kbps
Channel(s) : 2 channels
Channel positions : Front: L R
Sampling rate : 44.1 KHz
Compression mode : Lossy
Stream size : 51.1 MiB (10%)






المواضيع المشابهه
الموضوع كاتب الموضوع المنتدى مشاركات آخر مشاركة
اهمية فيتامين د (Vitamin D) Judy عالم الطفل والأسرة 2 30-12-2014 12:57 AM
PAKs, RAC/CDC42 (p21)-activated Kinases: Towards the Cure of Cancer and Other PAK-dependen سعد الدين كتب الهندسة الطبية الحيوية والبيولوجية 3 30-09-2014 06:20 PM
موك اب psd كرتونة مفتوحة المصدر Vitamin box Mockup مباشر Demscio خلفيات فوتوشوب - فريمات وزخارف للفوتوشوب GFX 4 06-02-2014 10:08 AM
سرطان الكلية ، الكلى Kidney cancer وردة البستان الطب البشري - العلاج بالأدوية و الأعشاب الطبية 0 07-03-2013 10:30 PM
مطلوب القانون 29 لسنة 1974 ENGINEEREN مُسْتَشارُكَ القّانُونيْ 7 05-03-2010 05:16 PM

11-04-2017, 01:28 AM
أسيرالشوق غير متصل
الوسـام الماسـي
رقم العضوية: 46842
تاريخ التسجيل: Jul 2006
المشاركات: 12,838
إعجاب: 702
تلقى 1,833 إعجاب على 1,629 مشاركة
تلقى دعوات الى: 530 موضوع
    #2  
بارك الله فيك اخي الحبيب
شكراً لك على الطرح الرائع


 


World Without Cancer The Story of Vitamin B17 (1974)

English

Powered by vBulletin® Version
Copyright ©2000 - 2017, Jelsoft Enterprises Ltd.
The owner and operator of the site is not responsible for the availability of, or any content provided.
Topics that are written in the site reflect the opinion of the author.
جميع ما يُطرح من مواضيع ومشاركات تعبر عن رأي كاتبها ولا تعبر عن رأي مالك الموقع أو الإدارة بأي حال من الأحوال.